<?xml version="1.0" standalone="no"?>
<!DOCTYPE svg PUBLIC "-//W3C//DTD SVG 1.1//EN" "http://www.w3.org/Graphics/SVG/1.1/DTD/svg11.dtd" >
<svg xmlns="http://www.w3.org/2000/svg">
<metadata>Generated by IcoMoon</metadata>
<defs>
<font id="bwsicons" horiz-adv-x="1024">
<font-face units-per-em="1024" ascent="960" descent="-64" />
<missing-glyph horiz-adv-x="1024" />
<glyph unicode="&#x20;" horiz-adv-x="512" d="" />
<glyph unicode="&#xe900;" glyph-name="adsense" d="M931.008 408.576h-273.408l-219.776-472.576h393.792l167.68 366.080c22.848 49.856-13.504 106.496-68.288 106.496zM470.656 896c-27.392 0-52.48-15.744-64.128-40.896l-424.32-919.104h384l448 960h-343.552z" />
<glyph unicode="&#xe901;" glyph-name="captcha" d="M689.344 966.272l-177.344-177.216-177.344 177.28c-156.544-54.208-280.448-178.112-334.656-334.592l177.344-177.28-177.344-177.216c54.208-156.48 178.176-280.32 334.656-334.528l177.344 177.28 177.344-177.28c156.544 54.208 280.448 178.048 334.656 334.528l-177.344 177.28 177.344 177.216c-54.208 156.48-178.176 280.384-334.656 334.528zM640.192 245.888c-26.368-40.192-74.88-51.968-118.528-51.968-42.304 0-93.568 12.48-121.344 31.168l6.976 111.552c33.984-58.88 131.008-83.84 142.080-22.208 4.16 27.136-6.272 54.848-29.824 71.424-46.4 31.936-112.256 27.776-137.216 97.728-17.344 48.512-8.32 114.304 4.864 142.72 24.96 56.128 78.336 88.832 165.632 85.312 22.208-0.704 59.648-10.368 81.088-28.416l-15.936-120.64c-18.048 38.080-43.648 49.152-66.56 49.92-39.552 0-63.808-25.664-66.56-63.744-2.752-36.096 14.592-54.080 47.168-67.904 68.608-28.416 119.232-45.76 128.96-135.808 3.392-36.032-4.864-74.816-20.8-99.136z" />
<glyph unicode="&#xe902;" glyph-name="car-rental" d="M967.232 539.84c30.272 8.704 52.416 36.608 52.416 69.696 0 40.064-25.344 59.52-65.408 59.52h-46.528l-33.024 126.144c-36.288 108.8-153.152 100.672-153.152 100.672h-442.24c0 0-93.568 8.128-129.856-100.672l-33.088-126.208h-46.528c-40.064 0-65.408-19.456-65.408-59.52 0-33.088 22.144-60.928 52.416-69.696-32-26.56-56.832-58.624-56.832-103.424v-162.88c0-20.928 23.808-43.84 46.528-46.528v-116.352c0-20.032 3.264-46.592 23.296-46.592h162.944c19.968 0 23.232 26.56 23.232 46.528v81.472h512v-81.472c0-19.968 3.264-46.528 23.296-46.528h162.944c20.032 0 23.296 26.56 23.296 46.528v116.352c24.064-1.344 46.464 25.6 46.464 46.528v162.944c0 44.8-24.768 76.864-56.768 103.488zM160 360c-53.056 0-96 34.048-96 76.032 0 41.92 42.944 75.968 96 75.968s96-34.048 96-75.968c0-41.984-42.944-76.032-96-76.032zM768 436.032c0 41.92 42.944 75.968 96 75.968s96-34.048 96-75.968c0-41.984-42.944-76.032-96-76.032s-96 34.048-96 76.032zM721.472 256h-418.944c-9.984 0-23.296 29.184-23.296 46.528 0 17.408 13.248 46.528 23.296 46.528h418.88c9.984 0 23.296-29.12 23.296-46.528 0-17.344-13.248-46.528-23.232-46.528zM139.648 575.936l67.456 207.744c17.536 52.608 120.96 60.736 110.656 60.736h388.544c-10.304 0 93.12-8.128 110.656-60.736l67.456-207.744h-744.768z" />
<glyph unicode="&#xe903;" glyph-name="contact-form-multi" d="M896 192l-64-64v512h-768l64 64h768zM1024 320l-64-64v512h-768l64 64h768zM164.544 393.344l-164.544 109.504v-333.44zM554.048 357.824l-167.552-108.032-169.344 109.504-211.904-295.296h759.424zM606.72 391.808l161.28-219.52v330.56zM386.56 325.76l381.44 250.24h-762.752z" />
<glyph unicode="&#xe904;" glyph-name="contact-form-to-db" horiz-adv-x="768" d="M761.536 960l-376.768-256-376.704 256zM766.528 116.672c0-99.776-173.504-180.672-381.696-180.672s-382.912 80.896-382.912 180.672v101.632c0-99.776 174.72-161.856 382.912-161.856s381.696 62.016 381.696 161.856v-101.632zM766.528 308.736c0-99.84-173.504-180.736-381.696-180.736s-382.912 80.896-382.912 180.736v101.568c0-99.776 174.72-161.856 382.912-161.856s381.696 62.016 381.696 161.856v-101.568zM384.768 320c-208.192 0-382.848 65.28-382.848 145.856v33.792l224.512 215.68 157.888-107.328 160.768 107.392 221.44-215.68v-33.792c0-80.64-173.568-145.92-381.76-145.92zM768 608l-148.416 156.736 148.416 99.264zM0 864l148.992-99.264-148.992-156.736z" />
<glyph unicode="&#xe905;" glyph-name="contact-form" d="M1024 768l-512-322.88-512 322.88zM0 668.672l241.152-148.8-241.152-263.872zM1024 256l-241.152 263.872 241.152 148.8zM0 128l320 346.496 192-125.184 195.84 125.184 316.16-346.496z" />
<glyph unicode="&#xe906;" glyph-name="custom-admin-page" d="M1023.488 120.512c-0.128-6.592-2.56 14.080-8.768 22.656-13.632 18.752-35.2 32.448-68.608 45.12-57.408 21.696-71.040 29.312-71.040 29.312l-0.576 49.984c0 0 21.504 15.040 28.224 62.144 0 0 11.264 6.336 18.688 25.856 3.968 10.368 7.808 45.568-8.576 42.432 0 0 9.536 41.472-3.584 82.176-6.72 20.928-21.76 35.136-44.288 35.136-9.28 9.28-29.12 18.24-55.296 19.52h-0.192c-52.352-2.496-80-14.208-97.088-54.656-21.76-51.264-6.080-82.176-6.080-82.176-16.448 3.136-12.544-32.064-8.576-42.432 7.424-19.52 18.688-25.856 18.688-25.856 6.656-47.104 28.16-62.144 28.16-62.144l-0.576-49.984c0 0-13.632-7.552-71.040-29.312-33.344-12.672-54.912-26.304-68.608-45.12-6.208-8.64-8.896-16.128-8.768-22.656 1.216-3.264-3.84-54.656 18.176-55.616h398.912c14.848 0 10.816 19.712 10.816 55.616zM64 640h704v-64c37.632 14.656 37.568 11.52 64 0v194.624c0 32.32-28.992 61.376-61.376 61.376h-704.448c-32.384 0-66.176-31.68-66.176-64v-640c0-32.32 33.792-64 66.176-64h490.944c0 0-15.936 24.512 0 64h-493.12v512zM320 768h64v-64h-64v64zM192 768h64v-64h-64v64zM64 768h64v-64h-64v64zM552.32 156.928c0.256 0.576-0.32 0.832 0 0v0z" />
<glyph unicode="&#xe907;" glyph-name="custom-fields-search" d="M1018.56 78.592l-242.24 242.112c39.424 63.872 62.208 139.264 62.208 220.16 0 231.296-187.776 419.136-419.2 419.136-231.872 0-419.328-187.84-419.328-419.136 0-231.808 187.456-419.648 419.328-419.648 84.992 0 163.776 25.28 229.696 68.416l240.512-240.448c12.416-12.416 43.52-1.664 69.312 24l36.032 36.16c25.728 25.664 36.544 56.768 23.68 69.248zM419.264 260.544c-154.688 0-280.32 125.632-280.32 280.256 0 154.688 125.632 279.872 280.32 279.872s279.936-125.248 279.936-279.872c0-154.624-125.248-280.256-279.936-280.256zM461.888 384h-155.776c-9.984 0-18.112 8.128-18.112 18.112v27.776c0 9.984 8.128 18.112 18.112 18.112h155.712c10.048 0 18.176-8.128 18.176-18.112v-27.712c0-10.048-8.128-18.176-18.112-18.176zM525.888 576h-219.776c-9.984 0-18.112-8.128-18.112-18.112v-27.712c0-10.048 8.128-18.176 18.112-18.176h219.712c10.048 0 18.176 8.128 18.176 18.112v27.776c0 9.984-8.128 18.112-18.112 18.112zM525.888 704h-219.776c-9.984 0-18.112-8.128-18.112-18.112v-27.712c0-10.048 8.128-18.176 18.112-18.176h219.712c10.048 0 18.176 8.128 18.176 18.112v27.776c0 9.984-8.128 18.112-18.112 18.112z" />
<glyph unicode="&#xe908;" glyph-name="custom-search" d="M1018.56 65.728l-242.24 242.112c39.424 63.872 62.208 139.264 62.208 220.16 0 231.36-187.84 419.136-419.264 419.136-231.808 0-419.264-187.84-419.264-419.136 0-231.808 187.456-419.648 419.328-419.648 84.992 0 163.776 25.28 229.696 68.416l240.512-240.448c12.416-12.416 43.52-1.664 69.312 24l36.032 36.16c25.728 25.664 36.544 56.768 23.68 69.248zM419.264 247.744c-154.688 0-280.32 125.632-280.32 280.256 0 154.688 125.632 279.872 280.32 279.872s279.936-125.248 279.936-279.872c0-154.688-125.248-280.256-279.936-280.256z" />
<glyph unicode="&#xe909;" glyph-name="db-manager" d="M388.672 232.064c-0.96-0.064-1.92-0.064-2.88-0.064-7.872-0.192-15.744-0.32-23.744-0.32-0.256 0-0.576 0-0.896 0-7.424 0-14.784 0.128-22.144 0.32-1.344 0-2.752 0.064-4.16 0.064-7.488 0.192-14.848 0.576-22.208 0.96-0.96 0.064-1.984 0.064-3.008 0.192-15.616 0.832-30.912 2.112-45.76 3.712-118.272 12.736-222.080 48.064-255.552 92.864-3.392 4.544-6.208 6.272-8.32 6.464v-140.928c27.2-70.912 182.912-125.056 358.848-125.696h6.336c0.704 0 1.344 0 2.048 0l3.904 0.064v0.064c36.544 0.384 71.616 3.2 104.576 7.808-37.376 43.456-62.848 96.704-72.384 155.136-4.864-0.256-9.728-0.576-14.656-0.64zM1024 221.568v68.992l-61.248 21.632c-4.224 14.72-10.048 28.672-17.28 41.792l27.904 58.688-48.768 48.768-58.688-27.968c-13.056 7.232-27.072 13.056-41.664 17.344l-21.76 61.184h-68.928l-21.824-61.12c-14.656-4.288-28.608-10.112-41.728-17.344l-58.688 27.904-48.768-48.768 27.968-58.688c-7.232-13.12-13.12-27.072-17.344-41.792l-61.184-21.632v-68.992l61.184-21.76c4.224-14.592 10.048-28.544 17.344-41.728l-27.968-58.688 48.768-48.768 58.688 27.968c13.12-7.296 27.072-13.12 41.728-17.28l21.824-61.312h68.928l21.76 61.248c14.592 4.224 28.608 9.984 41.664 17.28l58.688-27.968 48.768 48.768-27.904 58.688c7.232 13.056 13.056 27.136 17.28 41.728l61.248 21.824zM768 162.048c-51.84 0-93.952 42.112-93.952 93.888 0 51.904 42.048 93.888 93.952 93.888 51.84 0 93.888-42.048 93.888-93.888 0-51.776-42.048-93.888-93.888-93.888zM361.984 582.4v0c188.992 0 354.304 54.144 366.4 122.432v75.776c-12.096 64.448-177.408 115.392-366.4 115.392v0c-177.344 0-334.656-44.928-361.984-103.744v-99.776c27.328-62.336 184.64-110.080 361.984-110.080zM413.824 493.248c-0.704 0-1.408-0.064-2.24-0.128-7.488-0.32-15.168-0.64-22.912-0.896-1.024-0.064-1.984-0.064-2.944-0.064-7.872-0.192-15.744-0.384-23.744-0.384-0.256 0-0.576 0-0.896 0-7.424 0-14.784 0.128-22.144 0.384-1.344 0-2.752 0.064-4.16 0.128-7.424 0.192-14.784 0.512-22.144 0.896-0.96 0-1.984 0.064-2.944 0.192-15.616 0.832-30.912 2.112-45.824 3.648-118.272 12.736-222.080 48.064-255.552 92.8-3.392 4.672-6.208 6.4-8.32 6.592v-140.928c27.2-70.912 182.912-125.056 358.848-125.696h6.336c0.704 0 1.344 0 2.048 0l3.904 0.064v0.064c10.688 0.128 21.248 0.512 31.744 0.96 9.984 64.96 39.936 123.456 83.712 169.536-8.384-1.216-16.96-2.304-25.664-3.264-15.296-1.664-30.976-2.944-47.104-3.904z" />
<glyph unicode="&#xe90a;" glyph-name="donate-button" d="M0 256h320v-320h384v320h320v384h-320v320h-384v-320h-320v-384z" />
<glyph unicode="&#xe90b;" glyph-name="email-queue" d="M964.288 37.312c0-20.572-17.049-37.248-38.080-37.248s-38.080 16.676-38.080 37.248c0 20.572 17.049 37.248 38.080 37.248s38.080-16.676 38.080-37.248zM708.288 37.312c0-20.572-17.049-37.248-38.080-37.248s-38.080 16.676-38.080 37.248c0 20.572 17.049 37.248 38.080 37.248s38.080-16.676 38.080-37.248zM836.288 37.312c0-20.572-17.049-37.248-38.080-37.248s-38.080 16.676-38.080 37.248c0 20.572 17.049 37.248 38.080 37.248s38.080-16.676 38.080-37.248zM903.68 849.024c-85.632 73.984-203.2 110.976-352.64 110.976-172.608 0-310.080-52.224-412.544-156.672-92.352-93.696-138.496-207.552-138.496-341.568 0-112.64 38.016-211.904 113.984-297.856 94.912-107.264 222.528-160.96 398.016-160.96 90.304 0 86.080 71.616 16.384 71.616-149.056 0-256.32 41.216-336.96 123.904-68.864 69.888-103.296 156.224-103.296 259.008 0 117.568 36.096 215.168 108.352 292.864 84.352 91.264 206.336 136.896 365.888 136.896 115.008 0 206.528-27.264 274.56-81.728 68.096-54.464 102.080-129.408 102.080-224.768 0-78.912-19.008-142.848-57.024-191.744-37.952-48.96-80.96-73.344-128.768-73.344-14.72 0-27.84 4.224-39.36 12.608-11.584 8.384-17.28 21.888-17.28 40.384 0 9.92 1.472 21.184 4.416 33.92 2.88 12.736 7.552 29.568 13.824 50.56l83.776 270.080h-92.608l-31.488-103.616c-1.728 34.112-16.512 63.296-44.48 87.552-27.84 24.256-63.232 36.416-106.048 36.416-62.976 0-121.92-31.232-176.64-93.696-54.784-62.528-82.176-134.656-82.176-216.512 0-57.536 16.064-104.576 48.192-141.184s73.984-54.912 125.632-54.912c36.096 0 71.168 9.856 105.152 29.312 33.984 19.584 62.144 52.928 84.416 100.288-1.28-5.376-2.368-10.496-3.2-15.488-0.832-4.928-1.28-9.6-1.28-14.144 0-27.52 9.856-51.072 29.632-70.656 19.712-19.456 50.368-29.312 91.968-29.312 70.976 0 135.104 33.216 192.384 99.584 57.28 66.432 85.952 146.496 85.952 240.192 0 111.424-40.128 202.112-120.32 272zM596.992 404.672c-31.616-64.768-75.776-97.088-132.352-97.088-27.328 0-49.984 10.56-67.904 31.744-18.048 21.12-27.072 51.904-27.072 92.16 0 54.656 17.536 109.632 52.48 164.992 35.072 55.296 76.544 82.88 124.288 82.88 30.656 0 54.592-10.176 72-30.464 17.408-20.416 26.176-43.328 26.176-68.8-0.064-52.096-15.872-110.656-47.616-175.424z" />
<glyph unicode="&#xe90c;" glyph-name="error-log-viewer" d="M576 960v-320h320zM448 352v-128c0-17.664 14.336-32 32-32s32 14.336 32 32v128c0 17.664-14.336 32-32 32s-32-14.336-32-32zM512 960h-384v-1024h768v640h-384v384zM352 128h-160v320h64v-256h96v-64zM640 352c0 52.992 43.008 96 96 96s96-43.008 96-96h-64c0 17.664-14.336 32-32 32s-32-14.336-32-32v-128c0-17.664 14.336-32 32-32s32 14.336 32 32v32h-32v64h96v-96c0-52.992-43.008-96-96-96s-96 43.008-96 96v128zM576 352v-128c0-52.992-43.008-96-96-96s-96 43.008-96 96v128c0 52.992 43.008 96 96 96s96-43.008 96-96z" />
<glyph unicode="&#xe90d;" glyph-name="facebook-button" d="M748.864 771.584l-23.552 1.472-23.552 3.008-55.936 7.296h-3.008c-5.824 0-11.776-1.472-14.656-2.944l-11.84-5.824c-5.824-3.008-10.304-8.896-14.656-13.312-7.36-11.776-10.24-25.024-10.24-41.28 0-72.064 1.536-104.704 1.536-106.176l150.016-1.536-22.144-159.808-129.408-4.48v-512h-201.408v514.88h-120.832v162.112h116.352c1.472 0 4.48 45.312 4.48 143.872 0 7.36 0 11.84 0 19.2s0 14.72 0 22.016c1.472 7.36 1.472 13.248 2.944 20.672 1.472 7.296 4.48 14.656 7.36 20.544 8.832 27.968 21.76 50.048 42.304 69.184h-1.472l35.328 27.968c16.192 8.832 36.864 16.192 58.88 19.136l19.136 4.416c11.84 0 20.672 0 26.496 0l187.008-14.784-19.136-173.632z" />
<glyph unicode="&#xe90e;" glyph-name="featured-posts" d="M128 576h256v-64h-256v64zM128 448h128v-64h-128v64zM128 320h128v-64h-128v64zM128 704h512v-64h-512v64zM128 832h512v-64h-512v64zM768 626.432v234.496c0 54.592-43.136 99.072-96.128 99.072h-575.744c-52.992 0-96.128-44.48-96.128-99.072v-697.792c0-54.656 43.136-99.136 96.128-99.136h304.384c64.576-78.080 162.176-127.872 271.424-127.872 194.432 0 352 157.568 352 351.936 0.064 161.024-108.288 296.512-255.936 338.368zM320 288.064c0-57.728 14.144-112 38.784-160.064h-262.656c-16.96 0-32.128 15.104-32.128 33.728v699.2c0 18.624 15.168 35.072 32.128 35.072h575.68c17.024 0 32.192-16.448 32.192-35.072v-222.528c-10.56 0.96-21.184 1.6-32 1.6-194.432 0-352-157.568-352-351.936zM917.76 317.504l-109.376-97.408 36.48-148.224c8.128-25.408-20.288-50.752-44.544-33.856l-125.632 80.448-125.568-80.448c-20.224-16.96-52.672 4.224-44.544 33.856l32.448 148.224-109.44 97.408c-20.224 16.96-12.16 55.040 12.16 55.040l145.856 12.736 56.704 139.712c12.16 25.472 44.608 25.472 56.768 0l56.704-139.712 145.856-12.736c24.256 0 36.416-38.080 16.128-55.040z" />
<glyph unicode="&#xe90f;" glyph-name="gallery-categories" d="M932.992 832h-351.936c-77.696-0.832-101.888-2.304-123.072 21.888l-7.552 12.928c-40.704 59.776-54.912 53.376-131.968 53.376h-227.52c-50.112 0-90.944-40.768-90.944-90.944v-802.304c0-50.176 40.832-90.944 90.944-90.944h842.048c50.24 0 91.008 40.832 91.008 90.944v707.712c0 50.112-40.768 97.344-91.008 97.344zM384 128h-128v128h128v-128zM384 320h-128v128h128v-128zM384 512h-128v128h128v-128zM448 640h128v-128h-128v128zM576 128h-128v128h128v-128zM576 320h-128v128h128v-128zM768 128h-128v128h128v-128zM768 320h-128v128h128v-128zM768 512h-128v128h128v-128z" />
<glyph unicode="&#xe910;" glyph-name="gallery" d="M256-64h-256v256h256v-256zM256 320h-256v256h256v-256zM256 704h-256v256h256v-256zM640-64h-256v256h256v-256zM640 320h-256v256h256v-256zM640 704h-256v256h256v-256zM1024-64h-256v256h256v-256zM1024 320h-256v256h256v-256zM1024 704h-256v256h256v-256z" />
<glyph unicode="&#xe911;" glyph-name="google-analytics" d="M1024 489.728l-180.224 110.4c4.608 12.48 7.488 25.792 7.488 39.936 0 64-51.84 115.84-115.84 115.84s-115.84-51.904-115.84-115.84c0-30.4 11.968-57.792 31.040-78.464l-138.24-209.024c-11.904 4.16-24.512 6.848-37.824 6.848-32.192 0-61.248-13.12-82.24-34.304l-65.28 37.44c2.496 9.472 4.288 19.264 4.288 29.504 0 64-51.84 115.84-115.84 115.84s-115.84-51.904-115.84-115.84c0-22.016 6.464-42.368 17.088-59.84l-112.128-112.064c-0.32-0.448 39.616-39.616 40-40.064l112.448 112.448c17.216-10.112 36.992-16.32 58.432-16.32 33.344 0 63.168 14.272 84.288 36.8l64.192-36.8c-3.072-10.432-5.248-21.184-5.248-32.64 0-64 51.84-115.84 115.84-115.84s115.84 51.904 115.84 115.84c0 30.144-11.776 57.408-30.72 78.016l138.432 209.28c11.776-4.032 24.128-6.656 37.248-6.656 29.376 0 55.872 11.264 76.288 29.312l183.616-112.448 28.736 48.64z" />
<glyph unicode="&#xe912;" glyph-name="google-captcha" d="M960 640v255.232l-82.56-82.88c-93.056 91.264-220.864 147.648-361.984 147.648-284.672 0-515.456-229.184-515.456-512 0-282.752 230.784-512 515.456-512 141.44 0 269.504 56.576 362.624 148.224l-89.984 89.408c-70.080-68.736-166.4-111.168-272.64-111.168-214.336 0-388.16 172.608-388.16 385.6 0 212.928 173.76 385.536 388.16 385.536 106.176 0 202.432-42.368 272.512-111.040l-83.008-82.56h255.040zM512 480c0 52.992-43.008 96-96 96h-96v-320h64v128h21.248l42.752-128h64l-47.296 141.696c28.16 16.704 47.296 47.168 47.296 82.304zM384 511.232h32c17.664 0 32-14.336 32-32s-14.336-32-32-32h-32v64zM768 512v64h-192v-320h192v64h-128v64h64v64h-64v64z" />
<glyph unicode="&#xe913;" glyph-name="google-maps" horiz-adv-x="960" d="M480 960c-159.040 0-288-125.248-288-279.744 0-71.808 8.64-125.888 100.8-260.224 150.272-218.944 187.2-484.032 187.2-484.032s36.928 265.088 187.2 484.032c92.16 134.336 100.8 188.416 100.8 260.224 0 154.496-128.896 279.744-288 279.744zM480 552.256c-70.72 0-128 57.344-128 128 0 70.72 57.28 128 128 128s128-57.28 128-128c0-70.72-57.28-128-128-128z" />
<glyph unicode="&#xe914;" glyph-name="google-one" d="M853.824 404.928v-84.928h85.44v84.928h84.736v85.568h-84.736v85.504h-85.44v-85.504h-85.824v-85.568zM640 453.888c0 19.136-1.728 37.376-5.184 55.616h-308.032v-114.688h184.704c-13.632-92.224-98.752-143.424-184.704-143.424-113.152 0-203.328 95.552-203.328 210.304 0 114.688 90.176 210.304 203.328 210.304 47.616 0 95.36-16.576 130.24-51.328l88.448 87.808c-60.416 57.408-136.128 86.912-218.688 86.912-181.248 0-326.784-149.44-326.784-333.696s145.536-333.696 326.784-333.696c188.032 0 313.216 135.552 313.216 325.888z" />
<glyph unicode="&#xe915;" glyph-name="google-shortlink" d="M487.616 106.24l-113.152-113.152c-80.64-80.64-217.088-74.944-304.768 12.736s-93.376 224.128-12.736 304.768l113.152 113.152c56 55.936 138.816 70.272 213.632 44.48l-224.704-224.704c-43.136-43.136-45.248-110.976-4.672-151.552 40.512-40.512 108.352-38.464 151.488 4.736l225.472 225.472c26.944-75.392 12.864-159.36-43.712-215.936zM308.928 325.696l326.4 326.208c22.72 22.592 59.008 22.976 81.28 0.704s21.952-58.624-0.704-81.28l-326.4-326.4c-22.656-22.656-59.072-22.976-81.28-0.704-22.336 22.272-21.952 58.624 0.704 81.28l0.064 0.064-0.064 0.128zM967.040 585.6l-108.736-108.672c-56.576-56.576-140.544-70.656-215.872-43.776l225.024 225.024c43.136 43.136 45.248 110.976 4.672 151.488-40.576 40.576-108.416 38.464-151.552-4.672l-224.256-224.256c-25.856 74.816-11.456 157.632 44.48 213.632l108.736 108.736c80.64 80.64 217.088 74.944 304.768-12.736 87.68-87.744 93.376-224.128 12.736-304.768z" />
<glyph unicode="&#xe916;" glyph-name="google-sitemap" d="M768 384v-96h-128v96h-96v128h96v256h-256v-256h96v-128h-96v-96h-128v96h-256v-256h256v96h128v-96h256v96h128v-96h256v256z" />
<glyph unicode="&#xe917;" glyph-name="htaccess" d="M512 960v-256h256zM576 303.68v12.16c0 111.808 82.56 196.16 192 196.16v128h-320v320h-384v-960h448v214.272c0 42.24 27.456 72.64 64 89.408zM896 256v59.84c0 75.712-52.288 132.16-128 132.16s-128-56.448-128-132.16v-61.376c-25.28-1.408-64-14.528-64-40.128v-230.208c0-26.624 30.912-48.128 57.472-48.128h279.232c26.56 0 47.296 21.504 47.296 48.128v230.208c0 25.6-38.784 40.256-64 41.664zM831.104 14.080c1.472-3.136 1.088-6.72-0.896-9.536-2.048-2.816-5.312-4.544-8.96-4.544h-106.432c-3.584 0-6.912 1.728-9.024 4.544-1.92 2.816-2.304 6.464-0.896 9.536l25.728 79.296c-13.632 10.56-26.624 26.432-26.624 43.2 0 30.72 31.36 55.808 64 55.808 32.512 0 64-25.088 64-55.808 0-16.768-12.992-32.64-26.56-43.2l25.664-79.296zM832 256h-128v59.84c0 38.144 25.856 66.752 64 66.752s64-28.608 64-66.752v-59.84z" />
<glyph unicode="&#xe918;" glyph-name="job-board" d="M640 356.16c0.064-28.608-12.864-36.16-41.408-36.16h-171.52c-28.608 0-43.072 7.552-43.072 36.16v18.432c-134.208 9.024-257.984 39.936-384 73.472v-355.712c0-51.008 33.472-92.352 84.416-92.352h847.296c50.944 0 92.288 41.344 92.288 92.352v355.648c-125.952-33.472-249.728-64.384-384-73.408v-18.432zM462.848 384h98.24c8.256 0 14.912 6.656 14.912 14.848v98.304c0 8.192-6.656 14.848-14.848 14.848h-98.304c-8.192 0-14.848-6.656-14.848-14.848v-98.24c0-8.256 6.656-14.912 14.848-14.912zM931.648 832h-227.648v20.864c0 60.352-29.504 107.136-89.856 107.136h-203.776c-60.352 0-90.368-46.784-90.368-107.136v-20.864h-235.328c-51.008 0-84.48-41.344-84.48-92.352v-144.256c125.952-33.472 249.6-73.664 383.808-82.688v12.864c0 28.608 22.464 51.712 51.008 51.712h154.112c28.544 0 50.88-23.104 50.88-51.712v-13.568c134.208 9.024 258.048 49.92 384 83.392v144.256c0 51.008-41.344 92.352-92.352 92.352zM640 832h-256v27.84c0 21.376 20.48 36.16 41.856 36.16h172.288c21.312 0 41.856-19.648 41.856-40.96v-23.040z" />
<glyph unicode="&#xe919;" glyph-name="latest-posts" d="M128.016 576.080h256.032v-64.008h-256.032v64.008zM128.016 448.064h128.016v-64.008h-128.016v64.008zM128.016 320.048h128.016v-64.008h-128.016v64.008zM128.016 704.096h512.064v-64.008h-512.064v64.008zM128.016 832.112h512.064v-64.008h-512.064v64.008zM768.096 626.518v234.525c0 54.663-43.141 99.084-96.14 99.084h-575.816c-52.999 0-96.14-44.486-96.14-99.084v-697.943c0-54.663 43.141-99.084 96.14-99.084h304.422c64.584-78.090 162.196-127.888 271.458-127.888 194.456 0 352.044 157.588 352.044 351.98 0.064 161.044-108.302 296.549-255.968 338.41zM96.14 128.024c-16.962 0-32.132 15.106-32.132 33.732v699.287c0 18.626 15.17 35.076 32.132 35.076h575.752c17.026 0 32.196-16.45 32.196-35.076v-222.556c-10.561 0.96-21.187 1.6-32.004 1.6-194.456 0-352.044-157.588-352.044-351.98 0-57.735 14.146-112.014 38.789-160.084h-262.689zM768.096 255.976h-128.016v256.032h64.008v-192.024h64.008v-64.008z" />
<glyph unicode="&#xe91a;" glyph-name="limit-attempts" d="M990.208 314.24v55.104c0 50.88-42.432 78.656-94.144 78.656-51.776 0-93.696-27.776-93.696-78.656v-56.192c-17.28-0.96-34.368-9.728-34.368-26.944v-125.888c0-17.856 14.72-32.32 32.896-32.32h190.784c18.176 0 32.32 14.464 32.32 32.32v125.888c0 17.216-16.576 27.072-33.792 28.032zM926.016 182.016c-0.96-1.408-2.56-2.304-4.352-2.304h-51.392c-1.728 0-3.328 0.832-4.352 2.304-0.96 1.408-1.152 3.264-0.448 4.8l12.416 31.168c-6.592 5.312-10.496 13.248-10.496 21.696 0 15.488 12.8 28.032 28.544 28.032 15.68 0 28.544-12.608 28.544-28.032 0-8.448-3.904-16.384-10.496-21.696l12.416-31.168c0.768-1.6 0.576-3.392-0.384-4.8zM955.328 312.832h-119.168v56.512c0 25.6 34.304 44.864 60.416 44.864 26.048 0 58.752-19.2 58.752-44.864v-56.512zM315.008 460.8c-4.928-2.944-19.648-8.896-33.472-12.8 13.76-3.904 28.544-9.856 33.408-12.8 9.856-4.928 12.8-16.704 6.912-26.56s-16.704-12.8-26.56-6.912c-4.928 2.944-17.728 12.8-27.52 23.616 3.968-13.696 5.952-30.464 5.952-36.352 0-10.816-8.832-19.648-18.688-19.648s-18.688 8.832-18.688 19.648c0 5.888 1.984 22.592 5.888 36.352-9.856-10.816-22.592-20.672-27.52-23.616-7.872-5.824-19.712-2.88-24.576 6.912s-2.944 21.632 6.848 26.56c4.928 2.944 19.648 8.896 33.472 12.8-13.824 3.904-28.544 9.856-33.472 12.8-9.856 4.928-12.8 16.704-6.912 26.56 4.928 9.856 16.704 12.8 25.536 6.912 4.928-2.944 17.728-12.8 27.52-23.616-3.84 13.696-5.824 30.464-5.824 36.352 0 10.816 8.832 19.648 18.688 19.648s18.688-8.832 18.688-19.648c0-5.888-1.984-22.592-5.888-36.352 9.856 10.816 22.592 20.672 27.52 23.616 8.832 5.888 20.672 2.944 25.536-6.912 5.952-9.856 2.944-21.632-6.848-26.56zM507.008 460.8c-4.928-2.944-19.648-8.896-33.472-12.8 13.76-3.904 28.544-9.856 33.408-12.8 9.856-4.928 12.8-16.704 6.912-26.56s-16.704-12.8-26.56-6.912c-4.928 2.944-17.728 12.8-27.52 23.616 3.968-13.696 5.952-30.464 5.952-36.352 0-10.816-8.832-19.648-18.688-19.648s-18.688 8.832-18.688 19.648c0 5.888 1.984 22.592 5.888 36.352-9.856-10.816-22.592-20.672-27.52-23.616-7.872-5.824-19.712-2.88-24.576 6.912s-2.944 21.632 6.848 26.56c4.928 2.944 19.648 8.896 33.472 12.8-13.824 3.904-28.544 9.856-33.472 12.8-9.856 4.928-12.8 16.704-6.912 26.56 4.928 9.856 16.704 12.8 25.536 6.912 4.928-2.944 17.728-12.8 27.52-23.616-3.84 13.696-5.824 30.464-5.824 36.352 0 10.816 8.832 19.648 18.688 19.648s18.688-8.832 18.688-19.648c0-5.888-1.984-22.592-5.888-36.352 9.856 10.816 22.592 20.672 27.52 23.616 8.832 5.888 20.672 2.944 25.536-6.912 5.952-9.856 2.944-21.632-6.848-26.56zM699.008 460.8c-4.928-2.944-19.648-8.832-33.408-12.8 13.76-3.904 28.544-9.856 33.408-12.8 9.856-4.928 12.8-16.704 6.912-26.56s-16.704-12.8-26.56-6.912c-4.928 2.944-17.728 12.8-27.52 23.616 3.904-13.76 5.888-30.464 5.888-36.352 0-10.816-8.832-19.648-18.688-19.648s-18.688 8.832-18.688 19.648c0 5.888 1.984 22.592 5.888 36.352-9.856-10.816-22.592-20.672-27.52-23.616-7.872-5.824-19.712-2.88-24.576 6.912s-2.944 21.632 6.848 26.56c4.928 2.944 19.648 8.896 33.472 12.8-13.824 3.904-28.544 9.856-33.472 12.8-9.856 4.928-12.8 16.704-6.912 26.56 4.928 9.856 16.704 12.8 25.536 6.912 4.928-2.944 17.728-12.8 27.52-23.616-3.84 13.696-5.824 30.464-5.824 36.352 0 10.816 8.832 19.648 18.688 19.648s18.688-8.832 18.688-19.648c0-5.888-1.984-22.592-5.888-36.352 9.856 10.816 22.592 20.672 27.52 23.616 8.832 5.888 20.672 2.944 25.536-6.912 5.952-9.856 2.944-21.632-6.848-26.56zM704 320h-640v256h768v-64h64v48.448c0 43.904-36.736 79.552-81.92 79.552h-732.16c-5.632 0-11.136-0.576-16.448-1.6-2.688-0.576-5.312-1.216-7.872-1.984-33.344-10.112-57.6-40.32-57.6-75.968v0-224.96c0-32.896 20.672-61.184 50.112-73.28 4.928-1.984 10.048-3.584 15.36-4.672 5.312-0.96 10.816-1.536 16.448-1.536h622.080v64z" />
<glyph unicode="&#xe91b;" glyph-name="linkedin" d="M232.704-64h-220.032v660.608h219.968v-660.608zM212.992 719.296c-22.848-21.824-52.992-32.64-90.304-32.64h-1.344c-36.416 0-65.792 10.88-88 32.64s-33.344 48.896-33.344 81.28c0 32.896 11.456 60.096 34.304 81.664 22.912 21.568 52.8 32.32 89.728 32.32 36.864 0 66.432-10.816 88.64-32.32 22.208-21.568 33.536-48.768 33.984-81.664 0.448-32.384-10.752-59.52-33.664-81.28zM1024-64h-219.328v353.344c0 46.656-9.024 83.2-27.008 109.632-18.048 26.432-46.080 39.616-84.352 39.616-28.032 0-51.456-7.68-70.336-22.976s-32.96-34.304-42.304-56.96c-4.928-13.312-7.36-31.296-7.36-54.016v-368.64h-219.328c0.896 177.344 1.344 321.152 1.344 431.36s-0.192 176-0.704 197.248l-0.64 32h219.328v-94.080c8.448 13.44 17.088 25.28 25.984 35.392 9.344 10.688 21.888 22.208 37.696 34.688 15.808 12.416 35.136 22.080 57.984 28.992 22.912 6.912 48.384 10.368 76.352 10.368 76.032 0 137.088-25.216 183.36-75.648 46.208-50.432 69.312-124.352 69.312-221.632v-378.688z" />
<glyph unicode="&#xe91c;" glyph-name="multilanguage" d="M152.64 228.224c0.128 0 17.28 0.32 23.616 4.032 16.128 10.048 37.888 34.752 56.96 57.152l5.952 6.912c24.192 27.712 48.704 59.776 73.024 95.552 4.48-3.328 10.368-7.872 15.168-11.584 9.408-7.168 18.816-14.4 22.912-17.024 9.088-5.952 43.904-24.96 52.224-28.672 1.472-0.576 3.84-1.536 6.592-2.688 17.152-7.168 26.368-10.624 32.192-10.624 6.336 0 9.728 3.968 10.816 7.68 1.216 4.736-3.136 38.784-14.72 42.56-3.776 1.408-71.232 28.992-81.216 33.6-5.76 2.816-17.472 7.68-27.136 11.712l-0.256 0.128c25.216 39.168 39.040 65.664 39.296 66.112 1.472 3.136 6.272 12.416 11.648 22.976 19.904 38.848 21.056 41.344 21.568 43.968 0.576 3.264 1.472 17.28 0.512 21.952l-2.752 8.128h-7.68c-3.584 0-7.232-1.472-13.312-3.84-3.584-1.472-7.936-3.136-12.8-4.736-7.168-2.368-16.64-7.296-25.728-12.16-8.512-4.48-19.136-10.048-23.808-10.816-7.424-1.728-24.832-7.808-41.664-13.696-6.848-2.432-13.312-4.672-18.368-6.4-16.192-5.44-46.976-14.4-60.288-17.92-6.336-1.728-12.352-2.688-17.536-3.456-5.632-0.896-10.56-1.728-14.208-2.944l-6.848-2.24 0.384-6.976c0.64-10.944 3.328-15.936 4.224-17.216 2.624-4.224 11.392-13.632 21.696-16 13.568-3.84 26.496-1.792 31.488-0.192 4.16 0.768 20.864 5.952 24.704 13.376 1.472 2.88 1.472 5.888 1.472 8.576 4.992 1.472 13.696 3.648 20.032 5.248 7.872 1.984 15.68 3.968 20.544 5.376l4.224 1.408c17.472 5.76 31.040 10.048 40.448 12.864-11.264-23.104-32.768-64.896-42.56-82.24-11.2-20.8-79.488-113.984-93.824-130.24-2.88-3.264-6.72-7.68-10.944-12.672-11.52-13.376-28.992-33.664-35.072-38.144l-12.16-8.896 13.568-6.656c1.92-0.896 4.16-1.28 7.616-1.28zM257.088 553.152l1.024-0.064c13.184 0 29.056 3.904 38.272 7.488 7.616 2.944 26.048 11.392 34.112 26.368 1.664 3.008 5.056 9.28 2.816 21.568-2.496 10.624-10.24 16.704-22.080 16.704h-0.128c-6.976-0.704-25.088-5.504-33.536-8.256l-4.544-1.28c-8.896-2.496-22.336-6.272-28.608-7.68-0.448-0.128-1.856-0.32-4.736-0.32-5.76 0-11.904 1.024-14.208 1.664l-1.984 1.92-10.24-0.192-2.432-5.44c-3.264-7.296 5.504-27.904 12.288-35.136 14.080-13.76 26.112-16.448 33.984-17.344zM706.496 35.776c-3.2-1.792-6.4-3.584-9.6-5.376-11.84-6.72-22.976-13.12-35.072-18.496-63.36-26.624-111.552-36.032-184.064-36.032-60.416 0-134.464 25.728-179.776 47.872-2.432 1.088-6.912 3.584-12.096 6.4-19.776 10.88-26.752 14.272-31.808 14.272-11.072 0-19.776-8.768-19.776-19.904 0-6.72 2.368-11.52 8.512-16.512 50.176-35.712 164.992-72 227.456-72h48.64c17.728 0 37.568 3.52 54.272 6.912 51.968 8.576 108.032 29.376 155.328 57.536l28.736-46.272 41.536 120.384-121.536 9.792 29.248-48.576zM684.672 446.912l80.512-23.744-36.48 128.512zM868.928 711.36v236.736c0 7.424-5.184 11.904-11.584 11.904-5.248 0-365.696-121.728-369.728-122.88l-323.328 112.128v-217.472c-49.28-16.448-84.608-27.776-86.4-28.288-3.456-1.152-8.128-2.304-11.584-6.272-1.152-1.152-1.728-3.904-2.304-5.632v-610.496c0-0.576 0.576-1.152 0.576-1.728 1.728-4.544 5.824-7.36 10.432-7.36 5.76 0 421.312 137.024 430.592 141.056 0 0 0.576 0 448.576-139.328v611.008l-85.248 26.624zM488.768 248.32l-383.424-123.328v539.2l383.424 131.968v-547.84zM827.584 902.656v-183.872l-294.592 85.824 294.592 98.048zM805.76 278.144l-21.44 76.48-122.304 36.8-26.048-62.272-59.072 17.536 125.184 303.552 57.984-17.536 104.896-372.096-59.2 17.536z" />
<glyph unicode="&#xe91d;" glyph-name="pagination" d="M746.688 640v0h-234.688v-448h234.688c117.824 0 213.312 95.232 213.312 220.864 0 125.696-95.488 227.136-213.312 227.136zM814.464 384.448l-112.64-92.48c-6.656-5.568-14.848-8.512-23.552-8.512-12.416 0-24.064 6.4-31.232 17.024-11.84 17.728-8.448 41.984 7.744 55.168l74.176 60.928-71.936 60.032c-16 13.44-19.264 37.696-7.296 55.168 6.144 9.024 15.68 14.976 26.112 16.448 10.432 1.344 20.544-1.6 28.736-8.384l110.144-91.84c9.28-7.808 14.592-19.392 14.464-31.808 0.064-12.288-5.504-24.192-14.72-31.744zM0 412.864c0-125.632 95.488-220.864 213.312-220.864v0h234.688v448h-234.688c-117.824 0-213.312-101.44-213.312-227.136zM130.752 416.128c-0.064 12.416 5.184 24.064 14.528 31.872l110.144 91.904c8.192 6.784 18.304 9.664 28.736 8.32 10.432-1.472 19.904-7.424 26.112-16.448 11.904-17.536 8.704-41.728-7.296-55.168l-71.936-60.032 74.176-60.928c16.192-13.184 19.584-37.44 7.744-55.168-7.168-10.624-18.816-17.024-31.232-17.024-8.704 0-16.832 3.008-23.552 8.512l-112.64 92.48c-9.216 7.552-14.784 19.456-14.784 31.68z" />
<glyph unicode="&#xe91e;" glyph-name="pdf-print" d="M960 704h-128v198.208c0 32.384-26.24 57.792-58.688 57.792h-522.624c-32.448 0-58.688-25.408-58.688-57.792v-198.208h-128c-35.328 0-64-28.672-64-64v-448c0-35.328 28.672-64 64-64h128v-134.784c0-31.616 25.6-57.216 57.216-57.216h525.568c31.616 0 57.216 25.6 57.216 57.216v134.784h128c35.328 0 64 28.672 64 64v448c0 35.328-28.672 64-64 64zM256 896h512v-192h-512v192zM768 128v-128h-512v192h512v-64zM768 512h-64v64h64v-64zM896 512h-64v64h64v-64z" />
<glyph unicode="&#xe91f;" glyph-name="pinterest" d="M884.608 507.712c-7.616-37.76-19.584-74.112-35.968-108.928-16.448-34.88-36.416-65.472-60.032-91.904-23.616-26.496-52.608-47.68-86.976-63.488-34.432-15.744-72.256-23.68-113.408-23.68-27.2 0-54.208 6.528-81.024 19.712-26.752 13.12-45.952 31.168-57.6 54.144-4.032-15.936-9.6-38.976-16.768-69.184-7.232-30.144-11.904-49.6-14.080-58.496-2.24-8.832-6.272-23.36-12.352-43.584-6.016-20.416-11.2-34.944-15.552-43.712-4.416-8.832-10.816-21.632-19.2-38.528-8.384-16.768-17.6-32.64-27.584-47.616s-22.4-32.768-37.184-53.184l-8.448-3.264-5.44 6.208c-6.016 64.384-8.96 102.912-8.96 115.712 0 37.76 4.288 80 12.928 127.040 8.576 46.976 21.888 105.856 39.872 176.896 17.984 70.912 28.416 112.576 31.168 124.864-12.8 26.752-19.2 61.376-19.2 104 0 34.112 10.368 66.048 31.168 96s47.232 44.992 79.168 44.992c24.384 0 43.392-8.384 57.024-24.96s20.416-37.696 20.416-63.104c0-27.072-8.768-66.176-26.368-117.568-17.6-51.2-26.368-89.6-26.368-115.008 0-25.856 8.96-47.296 27.008-64.32 17.92-16.96 39.744-25.472 65.408-25.472 21.952 0 42.368 5.12 61.12 15.36 18.816 10.24 34.496 24.256 47.104 41.92 12.608 17.6 23.808 37.056 33.6 58.432 9.792 21.312 17.408 43.968 22.784 68.032 5.44 23.936 9.408 46.784 11.968 68.288 2.624 21.504 3.968 41.92 3.968 61.184 0 70.976-21.888 126.272-65.728 165.824-43.84 39.616-100.928 59.392-171.328 59.392-80 0-146.816-26.56-200.384-79.744-53.568-53.12-80.448-120.512-80.448-202.176 0-18.048 2.496-35.456 7.552-52.288 5.056-16.768 10.432-30.144 16.256-39.936 5.76-9.856 11.2-19.2 16.192-27.968 4.992-8.896 7.488-15.104 7.488-18.752 0-11.52-3.008-26.496-9.024-44.928-6.016-18.496-13.44-27.776-22.208-27.776-0.768 0-4.224 0.64-10.176 1.856-20.416 6.144-38.464 17.6-54.272 34.496-15.808 16.704-28.032 36.096-36.608 58.112-8.64 21.888-15.104 44.096-19.52 66.496s-6.592 44.16-6.592 65.472c0 44.352 7.488 86.080 22.464 125.248s35.712 73.28 62.144 102.464c26.368 29.184 56.768 54.4 91.2 75.648 34.368 21.312 71.424 37.312 110.976 48 39.616 10.624 80 16.064 121.216 16.064 63.168 0 121.984-13.696 176.384-40.96 54.336-27.392 98.56-67.072 132.608-119.104 33.984-52.096 51.008-110.976 51.008-176.576 0-39.36-3.84-77.952-11.392-115.648z" />
<glyph unicode="&#xe920;" glyph-name="popular-posts" d="M130.304 576h256v-64h-256v64zM130.304 448h128v-64h-128v64zM130.304 320h128v-64h-128v64zM130.304 704h512v-64h-512v64zM130.304 832h512v-64h-512v64zM770.304 626.432v234.496c0 54.592-43.136 99.072-96.192 99.072h-575.68c-52.992 0-96.128-44.48-96.128-99.072v-697.792c0-54.656 43.136-99.136 96.128-99.136h304.384c64.576-78.080 162.176-127.872 271.424-127.872 194.432 0 352 157.568 352 351.936 0.064 161.024-108.288 296.512-255.936 338.368zM361.088 128h-262.656c-16.96 0-32.128 15.104-32.128 33.728v699.2c0 18.624 15.168 35.072 32.128 35.072h575.68c16.96 0 32.128-16.448 32.128-35.072v-222.528c-10.496 0.96-21.12 1.6-31.936 1.6-194.432 0-352-157.568-352-351.936 0-57.728 14.144-112 38.784-160.064zM615.168 426.56c52.352 68.16 51.392 85.44 51.392 85.44s40.704-26.752 66.88-85.44c26.176-58.688 18.88-128.96 18.88-128.96s12.16 4.608 32.512 30.528c20.352 25.92 20.608 87.168 20.608 87.168s60.8-71.616 60.8-159.68c0-126.080-110.528-184.768-110.528-184.768s-67.904 53.568-89.216 92.352c-21.312 38.016-36.864 103.872-36.864 103.872s-30.080-55.488-30.080-90.88c1.92-69.888 45.568-105.344 45.568-105.344s-162.88 49.216-162.88 164.864c0.128 115.712 80.576 123.52 132.928 190.848z" />
<glyph unicode="&#xe921;" glyph-name="portfolio" d="M0 960h512v-512h-512v512zM1024-64h-1024v448h1024v-448zM1024 448h-448v128h448v-128zM1024 640h-448v128h448v-128zM1024 832h-448v127.936h448v-127.936z" />
<glyph unicode="&#xe922;" glyph-name="post-to-csv" horiz-adv-x="832" d="M512 960v-320h320zM448 960h-448v-1024h832v640h-384v384zM256 320h-64v32c0 17.664-14.336 32-32 32s-32-14.336-32-32v-128c0-17.664 14.336-32 32-32s32 14.336 32 32v32h64v-32c0-52.992-43.008-96-96-96s-96 43.008-96 96v128c0 52.992 43.008 96 96 96s96-43.008 96-96v-32zM640 448l32-213.312 32 213.312h64l-48-320h-96l-48 320h64zM512 352v-16h-64v16c0 17.664-14.336 32-32 32s-32-14.336-32-32 14.336-32 32-32c52.992 0 96-43.008 96-96s-43.008-96-96-96-96 43.008-96 96v16h64v-16c0-17.664 14.336-32 32-32s32 14.336 32 32-14.336 32-32 32c-52.992 0-96 43.008-96 96s43.008 96 96 96 96-43.008 96-96z" />
<glyph unicode="&#xe923;" glyph-name="profile-extra-fields" d="M0 256h640v-251.136l90.176 95.68 66.688-164.544 49.6 20.16-66.624 164.288 131.264-5.632-161.024 141.184h273.92v192h-1024v-192zM64 384h896v-64h-269.184l-50.816 34.816v-34.816h-576v64zM448 960v-192h576v192h-576zM193.792 665.28c109.376 0 130.176-63.936 152.32-152.96l37.888-0.32v448h-384v-448l41.472 0.32c22.144 89.024 42.88 152.96 152.32 152.96zM192 896c53.056 0 96-43.008 96-96 0-53.056-42.944-96-96-96-52.992 0-96 35.648-96 96 0 52.992 43.008 96 96 96zM0 191.936h512v-191.936h-512v191.936zM448 512h576v192h-576v-192z" />
<glyph unicode="&#xe924;" glyph-name="promobar" d="M972.8 832h-921.6c-20.288 0-51.2-30.72-51.2-51.2v-665.6c0-20.416 30.912-51.2 51.2-51.2h921.6c20.416 0 51.2 30.784 51.2 51.2v665.6c0 20.224-30.784 51.2-51.2 51.2zM320 768h64v-64h-64v64zM192 768h64v-64h-64v64zM64 768h64v-64h-64v64zM960 128h-896v512h896v-512zM128 576h768v-128h-768v128z" />
<glyph unicode="&#xe925;" glyph-name="quotes-and-tips" d="M448 64h-448v319.168l192 448.832h192l-127.936-384h191.936v-384zM1024 64h-448v319.168l192 448.832h192l-128-384h192v-384z" />
<glyph unicode="&#xe926;" glyph-name="rating" d="M1003.072 507.008l-218.752-194.752 72.96-296.512c16.192-50.752-40.512-101.568-89.152-67.648l-251.264 160.896-251.2-160.896c-40.512-33.92-105.344 8.384-89.152 67.648l64.832 296.512-218.88 194.752c-40.512 33.92-24.32 110.080 24.32 110.080l291.776 25.408 113.408 279.36c24.384 50.88 89.152 50.88 113.472 0l113.408-279.36 291.776-25.408c48.704-0.064 73.024-76.16 32.448-110.080z" />
<glyph unicode="&#xe927;" glyph-name="re-attacher" d="M700.8 495.936v-0.064c26.24-0.064 47.424-25.472 47.424-52.224 0-26.688-21.184-43.456-47.424-43.52h-377.856c-26.24 0-47.488 16.832-47.488 43.52 0 26.752 21.248 52.224 47.488 52.224h0.064v0.064h377.792zM300.032 256h-131.008c-93.312 0-169.024 91.136-169.024 196.416 0 105.152 75.712 187.584 169.024 187.584h131.008c64.768 0 121.024-35.584 149.376-95.936l-260.096-0.064c-49.92 0.064-90.368-42.048-90.432-90.752 0-48.64 40.448-101.248 90.432-101.248h260.992c-28.032-61.376-84.8-96-150.272-96zM852.096 256h-125.824c-65.472 0-122.24 34.624-150.272 96h260.48c49.92 0 90.432 52.608 90.368 101.248 0 48.704-40.448 90.816-90.432 90.816h-259.584c28.352 60.352 84.608 95.936 149.44 95.936h125.888c93.312 0 168.96-82.432 169.024-187.648-0.064-105.216-75.712-196.352-169.088-196.352z" />
<glyph unicode="&#xe928;" glyph-name="realty" d="M512 896l-256-256v192h-128v-320l-128-128h64v-384h512v320h192v-320h192v384h64z" />
<glyph unicode="&#xe929;" glyph-name="related-posts" d="M128 576h256v-64h-256v64zM128 448h128v-64h-128v64zM128 320h128v-64h-128v64zM128 704h512v-64h-512v64zM128 832h512v-64h-512v64zM768 626.432v234.496c0 54.592-43.136 99.072-96.128 99.072h-575.744c-52.992 0-96.128-44.48-96.128-99.072v-697.792c0-54.656 43.136-99.136 96.128-99.136h304.384c64.576-78.080 162.176-127.872 271.424-127.872 194.432 0 352 157.568 352 351.936 0.064 161.024-108.288 296.512-255.936 338.368zM358.784 128h-262.656c-16.96 0-32.128 15.104-32.128 33.728v699.2c0 18.624 15.168 35.072 32.128 35.072h575.68c17.024 0 32.192-16.448 32.192-35.072v-222.528c-10.56 0.96-21.184 1.6-32 1.6-194.432 0-352-157.568-352-351.936 0-57.728 14.144-112 38.784-160.064zM649.152 144.576c-3.52-0.384-7.040-0.576-10.624-0.576-0.064 0-0.128 0-0.256 0v0h-98.112c-68.544 0-124.16 58.368-124.16 132.928 0 2.304 0.256 4.544 0.384 6.784h-0.384c0.32 70.272 50.048 125.952 113.344 131.712 3.456 0.384 6.976 0.576 10.56 0.576 0.064 0 0.128 0 0.256 0v0h60.864c-20.736-18.048-36.928-41.536-47.040-68.48h-2.304c-2.816 0-5.632-0.256-8.384-0.576-32.704-5.056-58.048-38.848-58.048-70.656 0-34.496 29.696-63.808 66.432-63.808h75.136c2.816 0 5.632 0.256 8.32 0.576 32.704 5.056 58.048 38.912 58.048 70.656 0 3.328-0.384 6.592-0.896 9.792 4.352 8.64 14.080 14.912 24.832 14.912h43.008c1.472-8.192 2.24-16.64 2.24-25.344 0-2.304-0.256-4.544-0.384-6.784h0.384c-0.256-70.272-49.984-125.952-113.216-131.712zM814.656 144.96c-3.52-0.32-7.040-0.576-10.624-0.576-0.064 0-0.128 0-0.256 0v0h-60.864c20.736 18.048 36.928 41.536 47.040 68.48h2.368c2.816 0 5.632 0.256 8.384 0.576 32.704 5.056 58.048 38.848 58.048 70.656 0 34.496-29.696 63.808-66.432 63.808h-75.136c-2.816 0-5.632-0.256-8.384-0.576-32.704-5.056-58.048-38.912-58.048-70.656 0-3.328 0.384-6.592 0.896-9.792-4.352-8.64-14.080-14.912-24.832-14.912h-43.008c-1.408 8.192-2.24 16.64-2.24 25.344 0 2.304 0.256 4.544 0.384 6.784h-0.384c0.32 70.272 50.048 125.952 113.344 131.712 3.52 0.384 7.040 0.576 10.624 0.576 0.064 0 0.128 0 0.256 0v0h98.112c68.544 0 124.16-58.368 124.16-132.928 0-2.304-0.256-4.544-0.384-6.784h0.32c-0.32-70.272-50.048-125.952-113.344-131.712z" />
<glyph unicode="&#xe92a;" glyph-name="sender" d="M704 320v-384h-384v384h-320l512 640 512-640h-320z" />
<glyph unicode="&#xe92b;" glyph-name="smtp" d="M354.368 699.264l97.152 97.152c0.768 0.832 1.92 1.856 3.072 2.752l2.176 1.664c6.208 4.608 14.464 7.36 23.104 7.36s16.896-2.752 23.808-7.872l1.536-1.152c1.216-1.088 1.984-1.792 2.752-2.56l97.344-97.344c15.616-15.68 15.616-41.088 0-56.704-7.552-7.552-17.6-11.712-28.352-11.712-10.688 0-20.8 4.16-28.288 11.712l-28.736 28.736v-121.856c0-22.144-17.984-40.064-40.064-40.064-10.752 0-20.8 4.16-28.352 11.776-7.552 7.552-11.712 17.664-11.712 28.352v121.856l-28.736-28.736c-7.552-7.616-17.6-11.776-28.352-11.776-10.688 0-20.736 4.16-28.288 11.712-15.616 15.68-15.616 41.088-0.064 56.704zM576 540.096v31.744h381.44l-481.856-288.512-471.488 288.512h379.904v-31.744c0-52.992 43.008-96 96-96v0c52.992 0 96 43.008 96 96zM0 483.072l226.112-132.992-226.112-282.688zM34.816 0l256.064 309.568 184.704-111.872 188.032 111.872 252.608-309.568zM960 64.576l-233.344 285.504 233.344 132.992z" />
<glyph unicode="&#xe92c;" glyph-name="social-buttons-pack" d="M850.944 279.744c-43.392 0-82.944-16-113.28-42.112l-391.808 198.272c0.064 2.048 0.32 4.032 0.32 6.144 0 6.528-0.448 12.928-1.152 19.328l390.208 199.232c30.656-27.456 71.168-44.288 115.712-44.288 95.552-0.064 173.056 76.928 173.056 171.84s-77.504 171.84-173.056 171.84c-95.616 0-173.056-76.928-173.056-171.84 0-6.528 0.448-12.992 1.152-19.328l-390.272-199.232c-30.656 27.456-71.168 44.288-115.712 44.288-95.552 0-173.056-76.928-173.056-171.84 0-94.976 77.504-171.904 173.056-171.904 49.152 0 93.504 20.48 124.992 53.248l381.44-193.088c-0.96-7.296-1.664-14.784-1.664-22.464 0-94.912 77.504-171.904 173.056-171.904 95.616 0.064 173.12 76.992 173.12 171.968 0 94.848-77.504 171.84-173.056 171.84z" />
<glyph unicode="&#xe92d;" glyph-name="social-login" d="M384 320h-256v192h256v160l256-256-256-256v160zM320 896v0c-70.72 0-128-57.28-128-128v0-128h128v128h448v-704h-448v128h-128v-128c0-70.72 57.28-128 128-128v0h448c70.72 0 128 57.28 128 128v703.872c0 70.656-57.28 128-127.936 128l-448.064 0.128z" />
<glyph unicode="&#xe92e;" glyph-name="subscriber" d="M575.104 247.104c-19.136-12.16-41.152-18.176-63.104-18.176s-43.968 6.080-63.104 18.24l-448.896 283.904v-526.272c0-38.016 30.784-68.8 68.8-68.8h886.336c38.080 0 68.864 30.784 68.864 68.8v526.272l-448.896-283.968zM989.248 668.48l-443.136 252.736c-21.12 12.032-47.040 12.032-68.16 0l-443.2-252.736c-21.504-12.224-34.752-35.072-34.752-59.776v-1.856l192-121.472v184.192c0 19.008 14.080 34.368 31.424 34.432h577.152c17.344-0.064 31.424-15.424 31.424-34.432v-184.192l192 121.472v1.856c0 24.704-13.248 47.552-34.752 59.776zM256 512h512v-64h-512v64zM256 640h512v-64h-512v64zM352.192 384l101.184-64h117.248l101.12 64z" />
<glyph unicode="&#xe92f;" glyph-name="testimonials" d="M512 819.136c-282.752 0-512-160.448-512-358.336 0-197.952 229.248-358.4 512-358.4 62.656 0 122.752 7.872 178.24 22.336 30.144 7.808 61.44-32.128 128.96-124.736l51.264 204.928c94.72 65.088 153.536 155.648 153.536 255.808 0 197.952-229.184 358.4-512 358.4zM513.728 371.136c-53.056 0-96.064 43.008-96.064 96 0 53.056 43.008 96 96.064 96 52.992 0 95.936-42.944 95.936-96s-43.008-96-95.936-96zM257.728 371.136c-53.056 0-96.064 43.008-96.064 96 0 53.056 43.008 96 96.064 96 52.992 0 95.936-42.944 95.936-96s-43.008-96-95.936-96zM769.728 371.136c-53.056 0-96.064 43.008-96.064 96 0 53.056 43.008 96 96.064 96 52.992 0 95.936-42.944 95.936-96s-43.008-96-95.936-96z" />
<glyph unicode="&#xe930;" glyph-name="timesheet" d="M846.272 796.416h-796.544c-27.456 0-49.728 22.272-49.728 49.728v0.128c0 27.456 22.272 49.728 49.728 49.728h796.544c27.456 0 49.728-22.272 49.728-49.728v-0.128c0-27.456-22.272-49.728-49.728-49.728zM846.272 604.416h-796.544c-27.456 0-49.728 22.272-49.728 49.728v0.128c0 27.456 22.272 49.728 49.728 49.728h796.544c27.456 0 49.728-22.272 49.728-49.728v-0.128c0-27.456-22.272-49.728-49.728-49.728zM481.472 412.416h-431.744c-27.456 0-49.728 22.272-49.728 49.728v0.128c0 27.456 22.272 49.728 49.728 49.728h431.744c27.456 0 49.728-22.272 49.728-49.728v-0.128c0-27.456-22.272-49.728-49.728-49.728zM435.584 220.416h-385.856c-27.456 0-49.728 22.272-49.728 49.728v0.128c0 27.456 22.272 49.728 49.728 49.728h385.856c27.456 0 49.728-22.272 49.728-49.728v-0.128c0-27.456-22.272-49.728-49.728-49.728zM801.664 512c-122.752 0-222.272-99.52-222.272-222.272s99.52-222.272 222.272-222.272c122.752 0 222.336 99.52 222.336 222.272s-99.52 222.272-222.336 222.272zM864 256h-96v160c0 17.664 14.336 32 32 32s32-14.336 32-32v-96h32c17.664 0 32-14.336 32-32s-14.336-32-32-32z" />
<glyph unicode="&#xe931;" glyph-name="twitter" d="M918.72 686.208c0.64-9.088 0.64-18.176 0.64-27.264 0-277.568-211.136-597.376-597.12-597.376-118.912 0-229.376 34.432-322.24 94.272 16.896-1.984 33.152-2.624 50.688-2.624 98.112 0 188.416 33.152 260.544 89.728-92.224 1.92-169.6 62.4-196.224 145.6 12.992-1.984 25.984-3.264 39.616-3.264 18.88 0 37.696 2.624 55.232 7.168-96.128 19.456-168.256 104-168.256 206.016 0 0.64 0 1.92 0 2.624 27.904-15.616 60.416-25.344 94.848-26.624-56.576 37.632-93.568 102.016-93.568 174.848 0 38.976 10.368 74.752 28.544 105.984 103.36-127.488 258.624-210.688 432.768-219.776-3.264 15.616-5.184 31.872-5.184 48.128 0 115.712 93.568 209.984 209.856 209.984 60.416 0 115.008-25.344 153.344-66.304 47.424 9.088 92.928 26.688 133.184 50.688-15.616-48.768-48.704-89.728-92.288-115.712 42.24 4.544 83.2 16.256 120.832 32.512-28.48-41.6-64.256-78.72-105.216-108.608z" />
<glyph unicode="&#xe932;" glyph-name="updater" d="M576 128h-384c-35.328 0-64 28.672-64 64v320h-96c-12.416 0-23.744 7.232-28.992 18.432-2.048 4.352-3.008 8.96-3.008 13.568 0 7.36 2.56 14.656 7.424 20.48l163.84 182.656c6.080 7.296 15.104 11.52 24.576 11.52s18.496-4.224 24.576-11.52l156.16-182.656c4.864-5.888 7.424-13.12 7.424-20.48 0-4.608-0.96-9.216-3.008-13.568-5.312-11.2-16.576-18.432-28.992-18.432h-96v-256h320v-128zM448 768h384c35.328 0 64-28.672 64-64v-320h96c12.416 0 23.744-7.232 28.992-18.432 2.048-4.352 3.008-8.96 3.008-13.568 0-7.36-2.56-14.656-7.424-20.48l-163.84-182.656c-6.080-7.296-15.104-11.52-24.576-11.52s-18.496 4.224-24.576 11.52l-156.16 182.656c-4.864 5.888-7.424 13.12-7.424 20.48 0 4.608 0.96 9.216 3.008 13.568 5.312 11.2 16.576 18.432 28.992 18.432h96v256h-320v128z" />
<glyph unicode="&#xe933;" glyph-name="user-role" d="M563.264 522.88c25.472-7.552 34.048 30.656 35.456 55.040 1.472 23.488 4.352 96.96-26.752 90.432 6.336 49.088 11.328 93.376 9.088 116.864-7.744 82.432-52.544 168.448-192.576 174.784-119.040-6.336-190.976-92.416-198.784-174.848-2.24-23.424 2.304-67.776 8.64-116.928-31.104 6.656-23.040-66.944-21.632-90.432 1.472-24.448 9.92-62.72 35.392-55.168 12.672-100.352 65.6-132.352 65.6-132.352l-0.576-106.624c0 0-38.4-16.192-147.264-62.4-63.168-27.008-110.976-93.056-129.856-96.256 123.584-139.904 292.736-141.76 387.648-164.864 48.64 11.84 116.864 18.304 188.352 40.448-25.728 42.88-40.896 93.12-40.896 147.136 0 40.448 8.448 78.912 23.552 113.664-36.928 16.96-46.528 23.36-46.528 23.36l0.192 106.112c0-0.064 38.272 31.68 50.944 132.032zM1024 129.856v60.416l-53.632 18.944c-3.712 12.864-8.832 25.088-15.104 36.544l24.448 51.392-42.624 42.624-51.392-24.448c-11.392 6.336-23.68 11.456-36.48 15.168l-19.072 53.504h-60.288l-19.072-53.504c-12.8-3.712-25.024-8.832-36.544-15.168l-51.328 24.448-42.624-42.624 24.448-51.392c-6.336-11.456-11.456-23.68-15.168-36.544l-53.568-18.944v-60.416l53.568-19.072c3.712-12.8 8.832-25.024 15.168-36.48l-24.448-51.328 42.624-42.688 51.328 24.448c11.456-6.4 23.744-11.456 36.544-15.104l19.072-53.632h60.288l19.008 53.568c12.8 3.648 25.024 8.768 36.48 15.104l51.392-24.448 42.624 42.688-24.448 51.328c6.336 11.456 11.456 23.744 15.104 36.48l53.696 19.136zM800 77.76c-45.376 0-82.24 36.864-82.24 82.176 0 45.44 36.864 82.24 82.24 82.24 45.312 0 82.112-36.8 82.112-82.24 0-45.312-36.8-82.176-82.112-82.176z" />
<glyph unicode="&#xe934;" glyph-name="visitors-online" d="M153.856 272.832c2.176 1.984 4.48 4.16 7.040 6.464 22.912 20.992 57.536 52.736 102.080 71.36 32.448 13.568 56.192 24.32 72.896 32.384v12.736c-15.168 18.752-31.104 46.272-41.472 85.376-23.36 22.144-34.752 53.504-41.024 70.848l-2.688 7.168c-15.040 38.016-21.12 93.12 7.104 133.568 0.832 1.216 1.728 2.368 2.56 3.52-0.768 29.888 1.408 52.096 2.304 61.376 3.84 39.68 21.312 80.768 49.856 116.416-16.128 6.784-33.536 12.032-53.504 13.056-79.36-4.096-130.944-60.544-136.128-114.496-1.472-15.36 1.536-44.416 5.76-76.608-20.672 4.352-40.448-1.472-23.232-56.256 4.864-15.296 19.008-44.032 36.032-39.104 8.448-65.728 35.584-86.72 35.584-86.72l-0.64-69.824c0 0-17.216-10.56-89.728-40.896-42.176-17.664-74.112-60.864-86.656-63.040 34.304-38.144 73.792-59.904 112.768-74.176l41.088 6.848zM972.8 196.032c0-49.025-40.459-88.768-90.368-88.768s-90.368 39.743-90.368 88.768c0 49.025 40.459 88.768 90.368 88.768s90.368-39.743 90.368-88.768zM738.176 277.44c-2.432 1.152-4.672 2.624-7.168 3.648-92.16 38.464-119.616 56.96-119.616 56.96v88.704c0 0 39.232 21.632 49.984 105.152 1.472-0.448 2.944-0.64 4.352-0.64 18.944 0 30.336 37.12 35.968 55.296 10.176 32.896 8.576 71.488-13.504 71.488-1.408 0-2.944-0.192-4.544-0.512 5.376 40.896 3.136 73.344 1.216 92.8-6.592 68.608-72.064 140.416-172.864 145.664-100.8-5.248-166.272-76.864-172.864-145.472-1.92-19.52-4.16-52.16 1.216-93.056-1.664 0.32-3.2 0.512-4.672 0.512-22.336 0-26.752-37.76-13.376-71.488 6.976-17.664 17.216-55.104 36.032-55.104 1.408 0 2.816 0.192 4.352 0.64 10.752-83.52 49.984-105.344 49.984-105.344v-88.768c0 0-27.456-18.24-119.616-56.768-53.568-22.4-94.080-77.376-110.016-80.064 104.704-116.416 247.936-117.952 328.32-137.152l0.64 0.064c55.168 13.184 140.288 18.56 222.080 57.984-11.648 22.336-18.816 47.296-18.816 74.048 0 29.76 8.768 57.28 22.912 81.408zM790.592 335.616l2.368-1.408c25.92 16.256 56.512 25.984 89.472 25.984 44.352 0 84.48-17.344 114.432-45.12 9.216 7.68 18.496 15.36 27.136 24.96-12.544 2.112-44.48 45.376-86.592 63.040-72.576 30.272-89.728 40.896-89.728 40.896l-0.704 69.888c0 0 27.136 20.992 35.648 86.72 17.024-4.928 30.976 24 35.968 39.232 17.216 52.8-2.496 60.48-23.296 56.128 4.224 32.192 7.296 61.248 5.76 76.544-5.184 54.016-56.704 110.528-136.064 114.688-19.968-1.024-37.44-6.272-53.632-13.056 28.544-35.712 46.080-76.736 49.92-116.416 0.96-9.472 3.136-32 2.304-62.336 32.96-45.056 19.136-106.304 11.52-130.944-5.888-18.944-17.92-57.984-45.696-83.712-10.304-38.848-26.176-66.24-41.28-84.992v-12.736c16.704-8.064 40.32-18.88 72.704-32.384 9.92-4.096 19.648-9.024 29.76-14.976z" />
<glyph unicode="&#xe935;" glyph-name="zendesk-help-center" d="M384 768c0-105.6-85.952-191.232-192-191.232s-192 85.632-192 191.232h384zM384 576v-448h-384zM448 320v448h384zM853.632 64.32c3.456-0.192 6.912-0.32 10.368-0.32 91.84 0 165.568 77.376 159.68 170.432-5.056 79.616-69.696 144.192-149.312 149.248-3.456 0.192-6.912 0.32-10.368 0.32-91.84 0-165.632-77.376-159.68-170.432 5.056-79.616 69.696-144.256 149.312-149.248zM832 256v64h64v-64h89.6l-121.6-140.8-115.2 140.8h83.2zM640.768 320c-106.432 0-192.768-85.952-192.768-192h192.64c-37.568 93.76 0.128 192 0.128 192z" />
<glyph unicode="&#xe936;" glyph-name="opening" d="M896 531.2c-32-19.2-128-57.6-217.6-83.2 89.6-25.6 185.6-64 217.6-83.2 64-32 83.2-108.8 44.8-172.8s-108.8-83.2-172.8-44.8c-32 19.2-115.2 83.2-179.2 153.6 25.6-89.6 38.4-198.4 38.4-236.8 0-70.4-57.6-128-121.6-128s-121.6 57.6-121.6 128c0 38.4 12.8 147.2 38.4 236.8-64-70.4-147.2-134.4-179.2-153.6-51.2-38.4-128-19.2-160 44.8s-19.2 140.8 44.8 172.8c32 19.2 128 57.6 217.6 83.2-89.6 25.6-185.6 64-217.6 83.2-64 32-83.2 108.8-44.8 172.8 32 64 108.8 83.2 166.4 44.8 32-19.2 115.2-83.2 179.2-153.6-25.6 89.6-38.4 198.4-38.4 236.8 0 70.4 57.6 128 121.6 128s121.6-57.6 121.6-128c0-38.4-12.8-147.2-38.4-236.8 64 70.4 147.2 134.4 179.2 153.6 57.6 38.4 134.4 19.2 166.4-44.8 38.4-64 19.2-140.8-44.8-172.8z" />
<glyph unicode="&#xe937;" glyph-name="real-estate" d="M518.4 486.4h-83.2v-140.8h83.2c51.2 0 76.8 25.6 76.8 70.4s-25.6 70.4-76.8 70.4zM512 896l-256-256v192h-128v-320l-128-128h64v-384h896v384h64l-512 512zM588.8 128l-64 128h-89.6v-128h-115.2v448h198.4c121.6 0 185.6-57.6 185.6-153.6 0-70.4-25.6-115.2-83.2-140.8l96-147.2h-128v-6.4z" />
<glyph unicode="&#xe938;" glyph-name="renty" d="M1024 524.8c-6.4 0 0 12.8 0 25.6s-6.4 19.2-19.2 19.2-76.8 19.2-83.2 25.6c-6.4 0-64 38.4-115.2 76.8-25.6 19.2-57.6 19.2-83.2 19.2-25.6 6.4-83.2 12.8-166.4 12.8s-128-6.4-134.4-12.8c-19.2-6.4-70.4-89.6-102.4-96-51.2-12.8-307.2-44.8-307.2-44.8-12.8-12.8-12.8-64-12.8-76.8s0-38.4 6.4-44.8c12.8-6.4 19.2-12.8 19.2-12.8 6.4 0 38.4-12.8 76.8-19.2 6.4-51.2 38.4-83.2 70.4-83.2 25.6 0 51.2 19.2 64 51.2h6.4c6.4 0 12.8 12.8 12.8 0 0-6.4 25.6-6.4 32-6.4s32 0 44.8 0 38.4 6.4 44.8 12.8c6.4 0 12.8 25.6 19.2 38.4 6.4 6.4 25.6 38.4 32 44.8 19.2 12.8 32 12.8 38.4 6.4 6.4 0 38.4-12.8 44.8-57.6 0-32 6.4-57.6 6.4-57.6s115.2 19.2 192 32 102.4 12.8 102.4 12.8 0 0 0 6.4c6.4 6.4 25.6 32 32 57.6 12.8 32 6.4 19.2 12.8 32s6.4 12.8 12.8 12.8c6.4 6.4 25.6 0 38.4-25.6 6.4-12.8 12.8-44.8 19.2-38.4 6.4 0 64 32 70.4 44.8s6.4 0 12.8 12.8c6.4 12.8 12.8 32 12.8 32zM576 569.6l-230.4 32c0 0 76.8 83.2 83.2 83.2s185.6-6.4 185.6-12.8-19.2-51.2-25.6-70.4c-12.8-19.2-12.8-32-12.8-32zM819.2 595.2c0 0-12.8 0-19.2-6.4-6.4 0-44.8-6.4-51.2-12.8-12.8 0-44.8 0-51.2 0s-57.6-6.4-57.6-6.4h-57.6l38.4 102.4h108.8c0 0 6.4-6.4 19.2-12.8 12.8-12.8 57.6-38.4 70.4-44.8 12.8-12.8 0-19.2 0-19.2zM19.2 531.2l262.4-44.8v-64c0 0-262.4 51.2-262.4 57.6s0 51.2 0 51.2zM140.8 473.6c0-12.8-19.2-19.2-38.4-12.8l-44.8 6.4c-19.2 6.4-38.4 19.2-32 32 0 12.8 12.8 19.2 38.4 12.8l44.8-6.4c19.2-6.4 38.4-19.2 32-32zM281.6 448c0-12.8-19.2-25.6-38.4-19.2l-57.6 12.8c-19.2 6.4-32 19.2-32 32s19.2 19.2 38.4 19.2l51.2-6.4c19.2-6.4 38.4-19.2 38.4-38.4zM435.2 467.2c-38.4 0-76.8-44.8-76.8-102.4s32-102.4 76.8-102.4c44.8-6.4 76.8 38.4 76.8 96s-32 108.8-76.8 108.8zM454.4 300.8c-19.2 0-32 25.6-32 64 0 32 12.8 57.6 32 57.6s32-25.6 32-57.6c6.4-38.4-12.8-64-32-64zM857.6 492.8c-32 0-64-32-64-76.8s25.6-76.8 64-76.8c32 0 64 32 64 76.8-6.4 44.8-32 76.8-64 76.8zM883.2 364.8c-12.8 0-25.6 25.6-25.6 51.2s12.8 51.2 25.6 51.2 25.6-25.6 25.6-51.2c0-25.6-12.8-51.2-25.6-51.2z" />
<glyph unicode="&#xe939;" glyph-name="unity" d="M857.6 772.352l-70.4 38.144c0-69.952 0-127.232 0-127.232 0-190.784-147.2-273.472-326.4-273.472s-326.4 82.752-326.4 273.536c0 0 0 44.544 0 101.76l-32-12.736c-64-31.808-102.4-95.36-102.4-171.712v-311.68c0-69.952 38.4-133.568 102.4-171.712l275.2-152.64c64-38.144 140.8-38.144 204.8 0l275.2 152.64c64 38.144 102.4 101.76 102.4 171.712v311.68c0 76.352-38.4 139.904-102.4 171.712zM364.8 689.664c0-76.352 64-139.904 140.8-139.904s140.8 63.616 140.8 139.904v0 203.52l-64 38.144c-64 38.144-140.8 38.144-204.8 0l-12.8-6.336v-235.328z" />
<glyph unicode="&#xe93a;" glyph-name="editor-code" d="M447.552 730.88l-93.312 101.12-354.24-384 354.24-384 93.312 101.12-260.992 282.88zM576.448 165.12l93.312-101.12 354.24 384-354.24 384-93.312-101.12 260.992-282.88z" />
<glyph unicode="&#xe93b;" glyph-name="shortcode" d="M0 896v-896h384v192h-192v512h192v192h-192zM832 896h-192v-192h192v-512h-192v-192h384v896z" />
<glyph unicode="&#xe93c;" glyph-name="bws-logo" d="M953.913 325.746c-21.447-38.855-46.592-77.198-75.435-114.233-68.551-100.466-192.91-193.365-254.919-225.052-38.457-19.684-89.088-34.702-126.805-44.316 204.459-39.538 403.285 114.46 466.034 352.37 6.997 26.852 12.004 53.134 15.417 78.734-7.566-15.872-15.588-31.744-24.292-47.502zM327.964 88.519c-70.087 61.952-114.176 154.169-114.176 264.533 0 207.076 154.852 374.898 345.884 374.898 117.931 0 222.151-64.114 284.501-161.906 1.479 4.494 3.129 9.045 4.437 13.54 17.010 57.799 23.438 113.38 18.887 162.816-35.442 34.93-77.995 62.976-126.862 82.716-207.588 83.854-477.753-63.431-543.346-312.946-40.789-154.51-9.899-309.931 70.485-420.58 19.058-3.527 39.14-4.494 60.188-3.072zM934.059 893.611c-119.694 109.682-325.632 79.019-507.79-59.392 44.658 22.357 92.16 36.807 139.89 42.098 103.31 41.529 200.932 38.343 264.704-19.342 70.656-63.886 83.797-180.167 46.364-307.314-25.145-85.618-73.159-176.185-141.995-258.958-154.567-185.742-454.428-341.902-620.203-137.671 13.596-54.67 39.481-102.059 78.62-137.842 96.313-88.178 248.377-85.618 398.962-9.33 85.504 43.349 170.61 110.364 244.565 198.201 38.286 45.397 70.884 93.127 97.564 141.54 116.224 210.603 121.97 435.655-0.683 548.011zM791.211 595.854c-4.38 5.86-23.666 26.226-28.956 30.436-56.092 45.056-124.985 71.68-199.68 71.68-46.99 0-91.648-10.468-132.38-29.468 15.246-6.656 30.322-14.165 45.284-22.756 155.989-89.088 240.64-247.808 205.824-372.224 2.788 3.3 5.518 6.599 8.021 9.785 54.784 71.054 114.859 157.298 144.953 243.712-12.174 23.78-26.453 46.82-43.065 68.836zM24.007 593.977c-71.794-176.469 23.154-384.683 207.303-496.299-24.86 33.451-41.7 72.42-56.149 121.344-137.444 102.741-194.446 258.162-134.087 372.907 39.708 75.662 123.79 115.029 221.355 114.404 33.166 41.017 72.704 74.524 115.996 99.214-158.549 1.877-299.065-75.264-354.418-211.57zM263.794 453.632c0.569 10.524 1.593 20.935 3.015 31.118-12.857-32.768-20.821-68.608-22.642-106.268-5.86-116.224 46.99-220.615 130.219-278.983 38.059 4.38 74.638 16.213 108.601 34.418-132.096 32.939-226.93 166.059-219.193 319.716z" />
<glyph unicode="&#xe93d;" glyph-name="warning" d="M508.992-64c-287.040 3.136-512.64 235.584-508.928 524.352 3.52 274.112 239.040 502.592 514.944 499.648 287.040-3.136 512.64-235.584 508.928-524.352-3.52-274.112-239.040-502.592-514.944-499.648zM424.128 768c-0.576-5.44 11.84-247.744 17.92-365.76 0.704-14.208 5.952-18.24 5.952-18.24h128c0 0 5.568 6.784 6.4 25.472 3.584 82.752 16.64 321.152 18.304 358.528-60.16 0-117.12 0-176.576 0zM507.136 319.872c-68.288-2.688-108.352-41.088-105.408-101.056 2.816-57.472 46.592-92.544 113.152-90.752 69.952 1.92 107.264 39.168 104.384 104.256-2.496 55.808-46.4 90.112-112.128 87.552z" />
</font>
</defs>
</svg>
